No.Game.No.Life.Zero.2017.1080p.Blu-Ray.10-Bit.Dual-Audio.DTS-HD.x265-iAHD.mkv +1


Torrent info
Uploader: iAHD
Language: English English
Category:
Anime - Dub
Labels:
Group: iAHD
Links:
Download: Torrent Magnet XDCC
Actions: Report
Scrape info
Date: 2018-08-06 21:01:31 UTC
File size: 9.5 GB
Seeders: 4
Leechers: 1
Completed: 62
Transferred: 592 GB
Info Hash: 1d1368b0ba376ebb1797f5ed134af3b32e3e9a91
Torrent Info: [AniDex Torrent #172562]

Description

Video
ID : 1
Format : HEVC
Format/Info : High Efficiency Video Coding
Format profile : Main [email protected]@Main
Codec ID : V_MPEGH/ISO/HEVC
Duration : 1 h 46 min
Bit rate : 5 454 kb/s
Width : 1 920 pixels
Height : 1 080 pixels
Display aspect ratio : 16:9
Frame rate mode : Constant
Frame rate : 23.976 (24000/1001) FPS
Color space : YUV
Chroma subsampling : 4:2:0
Bit depth : 10 bits
Bits/(Pixel*Frame) : 0.110
Stream size : 4.05 GiB (42%)
Writing library : x265 2.6:[Windows][GCC 7.3.0][64 bit] 10bit
Encoding settings : cpuid=1173503 / frame-threads=4 / numa-pools=16 / wpp / no-pmode / no-pme / no-psnr / no-ssim / log-level=2 / input-csp=1 / input-res=1920x1080 / interlace=0 / total-frames=0 / level-idc=0 / high-tier=1 / uhd-bd=0 / ref=6 / no-allow-non-conformance / no-repeat-headers / annexb / no-aud / no-hrd / info / hash=0 / no-temporal-layers / open-gop / min-keyint=24 / keyint=240 / bframes=16 / b-adapt=2 / b-pyramid / bframe-bias=0 / rc-lookahead=50 / lookahead-slices=4 / scenecut=40 / no-intra-refresh / ctu=32 / min-cu-size=8 / rect / no-amp / max-tu-size=32 / tu-inter-depth=1 / tu-intra-depth=3 / limit-tu=0 / rdoq-level=2 / dynamic-rd=0.00 / no-ssim-rd / signhide / tskip / nr-intra=0 / nr-inter=0 / no-constrained-intra / strong-intra-smoothing / max-merge=3 / limit-refs=3 / limit-modes / me=3 / subme=3 / merange=57 / temporal-mvp / weightp / no-weightb / no-analyze-src-pics / deblock=0:0 / sao / no-sao-non-deblock / rd=4 / no-early-skip / rskip / no-fast-intra / tskip-fast / no-cu-lossless / no-b-intra / no-splitrd-skip / rdpenalty=0 / psy-rd=2.00 / psy-rdoq=1.00 / no-rd-refine / analysis-reuse-mode=0 / no-lossless / cbqpoffs=0 / crqpoffs=0 / rc=crf / crf=16.0 / qcomp=0.60 / qpstep=4 / stats-write=0 / stats-read=0 / ipratio=1.40 / pbratio=1.30 / aq-mode=3 / aq-strength=0.80 / cutree / zone-count=0 / no-strict-cbr / qg-size=32 / no-rc-grain / qpmax=69 / qpmin=0 / no-const-vbv / sar=1 / overscan=0 / videoformat=5 / range=0 / colorprim=1 / transfer=1 / colormatrix=1 / chromaloc=0 / display-window=0 / max-cll=0,0 / min-luma=0 / max-luma=1023 / log2-max-poc-lsb=8 / vui-timing-info / vui-hrd-info / slices=1 / no-opt-qp-pps / no-opt-ref-list-length-pps / no-multi-pass-opt-rps / scenecut-bias=0.05 / no-opt-cu-delta-qp / no-aq-motion / no-hdr / no-hdr-opt / no-dhdr10-opt / analysis-reuse-level=5 / scale-factor=0 / refine-intra=0 / refine-inter=0 / refine-mv=0 / no-limit-sao / ctu-info=0 / no-lowpass-dct / refine-mv-type=0 / copy-pic=1
Language : Japanese
Default : Yes
Forced : No
Color range : Limited
Color primaries : BT.709
Transfer characteristics : BT.709
Matrix coefficients : BT.709

Audio #1
ID : 2
Format : DTS
Format/Info : Digital Theater Systems
Format profile : MA / Core
Codec ID : A_DTS
Duration : 1 h 46 min
Bit rate mode : Variable / Constant
Bit rate : 3 608 kb/s / 1 509 kb/s
Channel(s) : 6 channels
Channel positions : Front: L C R, Side: L R, LFE
Sampling rate : 48.0 kHz
Frame rate : 93.750 FPS (512 SPF)
Bit depth : 24 bits
Compression mode : Lossless / Lossy
Stream size : 2.68 GiB (28%)
Language : English
Default : Yes
Forced : No

Audio #2
ID : 3
Format : DTS
Format/Info : Digital Theater Systems
Format profile : MA / Core
Codec ID : A_DTS
Duration : 1 h 46 min
Bit rate mode : Variable / Constant
Bit rate : 3 840 kb/s / 1 509 kb/s
Channel(s) : 6 channels
Channel positions : Front: L C R, Side: L R, LFE
Sampling rate : 48.0 kHz
Frame rate : 93.750 FPS (512 SPF)
Bit depth : 24 bits
Compression mode : Lossless / Lossy
Stream size : 2.80 GiB (29%)
Language : Japanese
Default : No
Forced : No

Text #1
ID : 4
Format : PGS
Muxing mode : zlib
Codec ID : S_HDMV/PGS
Codec ID/Info : Picture based subtitle format used on BDs/HD-DVDs
Duration : 1 h 42 min
Bit rate : 2 716 b/s
Count of elements : 85
Stream size : 2.00 MiB (0%)
Title : Signs / Songs
Language : English
Default : Yes
Forced : No

Text #2
ID : 5
Format : PGS
Muxing mode : zlib
Codec ID : S_HDMV/PGS
Codec ID/Info : Picture based subtitle format used on BDs/HD-DVDs
Duration : 1 h 45 min
Bit rate : 50.2 kb/s
Count of elements : 2469
Stream size : 37.8 MiB (0%)
Title : Dialogue
Language : English
Default : No
Forced : No

Menu
00:00:00.000 : en:Chapter 01
00:00:19.019 : en:Chapter 02
00:02:58.011 : en:Chapter 03
00:05:05.764 : en:Chapter 04
00:10:05.897 : en:Chapter 05
00:14:17.398 : en:Chapter 06
00:19:33.673 : en:Chapter 07
00:28:49.478 : en:Chapter 08
00:33:18.997 : en:Chapter 09
00:38:25.220 : en:Chapter 10
00:42:20.455 : en:Chapter 11
00:44:23.286 : en:Chapter 12
00:51:03.394 : en:Chapter 13
00:58:42.519 : en:Chapter 14
01:04:35.205 : en:Chapter 15
01:10:27.432 : en:Chapter 16
01:13:05.381 : en:Chapter 17
01:24:53.547 : en:Chapter 18
01:28:35.769 : en:Chapter 19
01:38:37.078 : en:Chapter 20
01:41:11.566 : en:Chapter 21

Comments

No.Game.No.Life.Zero.2017.1080p.Blu-Ray.10-Bit.Dual-Audio.DTS-HD.x265-iAHD.mkv (9.5 GB)
Tracker details
Tracker 1: http://anidex.moe:6969/announce
Tracker 2: http://nyaa.tracker.wf:7777/announce
Actions:

Page generated in 38 ms.